#TITLE:My name is Jankenpopp;
#SUBTITLE:;
#ARTIST:Jankenpopp;
#TITLETRANSLIT:;
#SUBTITLETRANSLIT:;
#ARTISTTRANSLIT:;
#CREDIT:Jankenpopp;
#BANNER:jankenpoppbanner.png;
#BACKGROUND:jankenpoppbg.png;
#LYRICSPATH:;
#CDTITLE:cdtitle.png;
#MUSIC:My name is Jankenpopp.mp3;
#OFFSET:0.000;
#SAMPLESTART:36.140;
#SAMPLELENGTH:12.000;
#SELECTABLE:YES;
#BPMS:0.000=331.979,336.000=331.989;
#STOPS:;
#BGCHANGES:0.000=jankenpoppbg.png=1.000=0=0=1,
192.000=jankenpoppbg.png=1.000=0=0=1,
99999=-nosongbg-=1.000=0=0=0 // don't automatically add -songbackground-
;
// cache tags:
#FIRSTBEAT:0.000;
#LASTBEAT:416.000;
#SONGFILENAME:Songs/New Folder/My name is Jankenpopp/01 - My name is Jankenpopp.sm;
#HASMUSIC:1;
#HASBANNER:1;
#MUSICLENGTH:81.031;
// end cache tags

//---------------dance-single - ----------------
#NOTES:
     dance-single:
     :
     Beginner:
     15:
     1.000,1.000,1.000,0.210,0.056,640.000,228.000,17.000,0.000,5.000:
0100
0010
0001
0100
,
0000
0100
0000
0000
0001
0000
0000
0001
,
0010
0000
1000
0000
0100
0000
0000
0100
,
0000
0010
0100
0010
0001
0010
0100
0010
,
0100
0000
0001
0000
1000
0000
1000
0100
,
0010
0001
0010
0100
1000
0000
0100
0010
,
0001
0000
0010
0000
0100
0100
0000
0001
,
0010
0100
0000
1000
0100
0000
0100
0000
,
0001
0010
0100
0010
,
0100
0000
0000
0000
0010
0000
0001
0000
0000
0000
0000
0000
0010
0000
0000
0100
0000
0000
0000
0000
0000
0010
0000
0000
,
0001
0000
0100
0000
1000
0000
0010
0100
,
0010
0000
0001
0010
1000
0100
0010
0001
,
0010
0000
0100
0000
0010
0000
0100
0010
,
0001
0000
0010
0000
0100
0000
1000
0100
,
0001
0000
0100
0010
0002
0000
0103
0000
,
0010
0200
0000
0300
0001
0010
0100
1000
,
0110
1000
0100
0010
1100
0001
0010
0100
,
0011
1000
0100
0010
1100
0001
0010
0100
,
0011
1000
0100
0010
1100
0001
0010
0100
,
0011
1000
0100
0010
1100
0001
0010
0100
,
0011
1000
0100
0010
1100
0001
0010
0100
,
0011
1000
0100
0010
1100
0001
0010
0100
,
0022
0000
0000
0000
0000
0000
0000
0000
0000
0000
0000
0000
0000
0000
0000
0000
0000
0000
0000
0000
0000
0000
0000
0000
0000
0000
0000
0000
0000
0000
0000
0033
0022
0000
0000
0000
0000
0000
0000
0000
0000
0000
0000
0000
0000
0000
0000
0000
0000
0000
0000
0000
0000
0000
0000
0000
0000
0000
0000
0000
0000
0000
0000
0033
,
0022
0000
0000
0000
0000
0000
0000
0000
0000
0000
0000
0000
0000
0000
0000
0000
0000
0000
0000
0000
0000
0000
0000
0000
0000
0000
0000
0000
0000
0000
0000
0000
0000
0000
0000
0000
0000
0000
0000
0000
0000
0000
0000
0000
0000
0000
0000
0000
0000
0000
0000
0000
0000
0000
0000
0000
0000
0000
0000
0000
0000
0000
0000
0000
0000
0000
0000
0000
0000
0000
0000
0000
0000
0000
0000
0000
0000
0000
0000
0000
0000
0000
0000
0000
0000
0000
0000
0000
0000
0000
0000
0000
0000
0033
0000
0000
0020
0000
0000
0000
0000
0000
0000
0000
0000
0000
0000
0000
0000
0000
0000
0000
0000
0000
0000
0000
0000
0000
0000
0000
0000
0000
0000
0000
0000
0000
0000
0000
0100
0000
0000
0000
0000
0000
0000
0000
0000
0000
0000
0000
0000
0000
0000
0000
0000
0000
0000
0000
0000
0000
0000
0000
0000
0000
0000
0000
0000
0000
0000
0000
1000
0000
0000
0000
0000
0000
0000
0000
0000
0000
0000
0000
0000
0000
0000
0000
0000
0000
0000
0000
0000
0000
0000
0000
0000
0000
0000
0000
0000
0030
0000
0000
,
0100
0000
0000
0000
0000
0000
1000
0000
0100
0000
0010
0000
0001
0000
0000
0100
0000
0000
0010
0000
0000
0100
0000
0000
,
1001
0100
0010
0100
1001
0010
0100
0010
,
1001
0100
0010
0100
1001
0010
0100
0010
,
1001
0100
0010
0100
1001
0010
0100
0010
,
1001
0100
0010
0100
1001
0010
0100
0010
,
1001
0100
0010
0100
1001
0010
0100
0010
,
1001
0100
0010
0100
1001
0010
0100
0010
,
1001
0100
0010
0100
1001
0010
0100
0010
,
1001
0000
0100
0000
0011
0100
1000
0100
,
0001
0010
0100
1000
0001
0010
0100
1000
,
0001
0010
0100
1000
1000
0100
0010
0001
,
1000
0100
0010
0001
1000
0100
0010
0001
,
0110
1001
0110
1001
,
0110
1001
0110
1001
,
0110
1001
0110
1001
,
1001
1001
1001
1001
1001
1001
1001
1001
,
0100
0000
1000
0010
0101
0000
0100
0010
,
0001
0000
0100
0010
0101
0000
0010
0100
,
1000
0000
0010
0100
0011
0000
1000
0100
,
0010
0000
0001
0100
0011
0000
1000
0100
,
0010
0000
0001
0010
1100
0000
0100
1000
,
0100
0000
0010
0001
0110
0000
0110
0000
,
1000
0000
0010
0001
0110
0000
1000
0100
,
0010
0000
0001
0010
1100
1100
1100
1100
,
0011
0000
1100
0000
0011
0100
1000
0100
,
0011
0000
1000
0100
0011
0000
0100
0010
,
0001
0010
1100
0010
0101
0000
0010
0100
,
0010
0001
0010
0001
0110
0000
1000
0000
,
0110
1000
0100
0001
0110
1000
0100
0011
,
0100
0010
0001
0010
1100
0000
0010
0000
,
0110
0110
0110
0110
0110
0110
0110
0110
,
0110
0110
0110
0110
2222
3333
0000
0000
,
1100
0011
0000
1100
,
0011
0000
1100
0000
0011
0000
0000
1100
,
0000
0011
0000
0000
1100
0000
0011
0000
,
0000
1100
0000
0011
1000
0100
0010
0001
,
0110
0000
1001
0000
,
1010
0000
0000
1010
1010
0000
0000
0000
,
0101
0000
0101
0000
,
0101
0000
0000
0000
0000
0000
0101
0000
0101
0000
1010
0000
,
0101
0000
0000
0000
0000
0000
1100
0000
1100
0000
1100
0000
,
1100
0000
0010
0000
,
2200
0000
3310
0001
0010
0100
1000
0100
,
0011
0100
1000
0100
0011
0100
1010
0000
,
1010
1010
1010
1010
0101
1010
1010
1010
,
0000
2100
3021
0030
,
1100
0010
0001
0000
,
0110
0000
0110
0000
,
0110
1000
0100
0001
0110
1000
0001
1000
,
0110
0001
1000
0001
0110
1000
0001
1000
,
0110
0001
1000
0001
0110
1000
0100
0001
,
0110
0001
0010
1000
0110
1000
0001
1000
,
0110
0001
0100
1000
0110
1000
0001
1000
,
0110
0001
0010
1000
0110
1000
0100
0001
,
0110
0001
0010
0001
0110
1000
0100
0001
,
0110
1000
0100
1000
0110
0001
0100
1000
,
0110
1000
0001
1000
0110
0001
0010
0001
,
0110
0001
0010
1000
0110
0001
0100
1000
,
0110
0001
1000
0001
0110
1000
0001
1000
,
0110
0001
1000
0001
0110
1000
0100
0001
,
0110
1001
1001
1001
0110
1001
1001
1001
,
0110
0000
0110
0000
1111
0000
0100
0010
,
1001
0000
0010
0100
1001
0000
0100
0010
,
1001
0000
0010
0100
1001
0000
0100
0010
,
1001
0110
0110
0110
0110
0110
1000
0010
,
1001
0000
0001
0010
1001
0000
1000
0100
,
1001
0000
1000
0100
1001
0000
1000
0100
,
1001
0000
0001
0010
1001
0000
1000
0100
,
1001
0110
0110
0110
0110
0110
0001
0010
,
1001
0000
1000
0100
1001
0000
0001
0010
,
1001
0000
0100
0010
1001
0000
0110
0000
,
1001
0110
1001
0110
1001
0110
1001
0110
,
1001
0110
0110
0110
0110
0110
1000
0010
,
1001
0000
0001
0100
1001
0000
1000
0010
,
1001
0000
0001
0100
1001
0000
1000
0010
,
1001
0000
0001
0100
1001
0000
1000
0010
,
1001
0110
0110
0110
0110
0110
1000
0010
,
1001
0000
0001
0100
1001
0000
1000
0010
,
1001
0000
0001
0100
1001
0000
1000
0010
,
1001
0000
0001
0100
1001
0000
1000
0010
,
1111
0000
0000
0000
;

//---------------pump-single - ----------------
#NOTES:
     pump-single:
     :
     Easy:
     1:
     0.522,0.578,1.000,0.000,0.000,205.000,91.000,0.000,0.000,0.000:
10001
00100
10001
00100
,
10001
00100
01010
00100
,
01010
10001
00100
10001
,
00000
00010
00010
00010
,
00010
00010
00010
00010
,
00010
01000
01000
01000
,
01000
01000
01000
01000
,
01000
00001
00001
00001
,
00001
00001
00001
00001
,
00001
10000
10000
10000
,
10000
10000
10000
10000
,
10000
01010
01010
01010
,
01010
01010
01010
01010
,
01010
10001
10001
10001
,
10001
10001
10001
10001
,
10001
10001
00100
10001
,
00100
10001
00100
01010
,
00100
01010
10001
00100
,
10001
00000
00010
00010
,
00010
00010
00010
00010
,
00010
00010
01000
01000
,
01000
01000
01000
01000
,
01000
01000
00001
00001
,
00001
00001
00001
00001
,
00001
00001
10000
10000
,
10000
10000
10000
10000
,
10000
10000
01010
01010
,
01010
01010
01010
01010
,
01010
01010
10001
10001
,
10001
10001
10001
10001
,
10001
10001
10001
00100
,
10001
00100
10001
00100
,
01010
00100
01010
10001
,
00100
10001
00000
00010
,
00010
00010
00010
00010
,
00010
00010
00010
01000
,
01000
01000
01000
01000
,
01000
01000
01000
00001
,
00001
00001
00001
00001
,
00001
00001
00001
10000
,
10000
10000
10000
10000
,
10000
10000
10000
01010
,
01010
01010
01010
01010
,
01010
01010
01010
10001
,
10001
10001
10001
10001
,
10001
10001
10001
00000
,
10010
10010
01001
01001
,
10010
10010
01001
01001
,
10010
10010
01001
01001
,
10010
10010
01001
01001
,
00100
10010
10010
01001
,
01001
10010
10010
00100
,
00100
00000
00000
00000
;
